[ 1 сообщение ] 
Автор Сообщение

СообщениеДобавлено: 22 янв 2014 

Не в сети
Супермодератор
Аватара пользователя

Спасибо: 4122 / 86
Сообщения: 1823
Откуда: St.- Petersburg
Пол: Мужской
Стаж: 7 лет 14 дней
Торренты: 1648
Достижения: 4
10 релизов (1) 100 релизов (1) 300 релизов (1)
1000 спасибок (1)
Moloch - Moloch


Формат: APE, (image+.cue), lossless
Год выпуска: 1970
Страна: USA
Жанр: Blues Rock, Psychedelia, Memphis Blues
Продолжительность: 01:15:20
Описание:

Трeклист:

01. Helping Hand 03:21
02. Maverick Woman Blues 03:05
03. Outta Hand 02:49
04. Same Old Blues 02:58
05. Going Down 02:57
06. She Looks Like An Angel 04:11
07. Gone Too Long 04:30
08. Dance Chaney Dance 02:53
09. Mona 02:07
10. People Keep Talking 02:49
11. I Can Think The Same Of You 02:44
12. Night At The Possum 06:00

Bonus Tracks:
13. Cocaine Katy 02:46
14. The Terrorizing Of Miss Nancy Jane 03:08


Доп. информация: Fallout FOCD2031 2007 USA

Lee Baker - guitar, vocals
Philllip Durham - drums, vocal
Fred Nicholson - organ
Steve Spear - bass
Gene Wilkins - vocals


Exact Audio Copy V0.99 prebeta 4 from 23. January 2008

EAC extraction logfile from 16. June 2010, 14:16

Moloch / Moloch

Used drive : TSSTcorpCDDVDW SH-S222L Adapter: 3 ID: 0

Read mode : Secure
Utilize accurate stream : Yes
Defeat audio cache : Yes
Make use of C2 pointers : No

Read offset correction : 6
Overread into Lead-In and Lead-Out : No
Fill up missing offset samples with silence : Yes
Delete leading and trailing silent blocks : No
Null samples used in CRC calculations : Yes
Used interface : Installed external ASPI interface

Used output format : Monkey's Audio Lossless Encoder v3.99 DLL
Sample format : Normal Lossless Compression

TOC of the extracted CD

Track | Start | Length | Start sector | End sector
---------------------------------------------------------
1 | 0:00.00 | 3:21.46 | 0 | 15120
2 | 3:21.46 | 3:05.55 | 15121 | 29050
3 | 6:27.26 | 2:49.71 | 29051 | 41796
4 | 9:17.22 | 2:58.22 | 41797 | 55168
5 | 12:15.44 | 2:57.23 | 55169 | 68466
6 | 15:12.67 | 4:11.48 | 68467 | 87339
7 | 19:24.40 | 4:30.60 | 87340 | 107649
8 | 23:55.25 | 2:53.36 | 107650 | 120660
9 | 26:48.61 | 2:07.32 | 120661 | 130217
10 | 28:56.18 | 2:49.43 | 130218 | 142935
11 | 31:45.61 | 2:44.20 | 142936 | 155255
12 | 34:30.06 | 6:00.19 | 155256 | 182274
13 | 40:30.25 | 2:46.28 | 182275 | 194752
14 | 43:16.53 | 3:08.43 | 194753 | 208895

Range status and errors

Selected range

Filename M:\cd\Moloch - Moloch.ape

Peak level 98.9 %
Range quality 100.0 %
Test CRC 35F533AC
Copy CRC 35F533AC
Copy OK

No errors occurred

AccurateRip summary

Track 1 not present in database
Track 2 not present in database
Track 3 not present in database
Track 4 not present in database
Track 5 not present in database
Track 6 not present in database
Track 7 not present in database
Track 8 not present in database
Track 9 not present in database
Track 10 not present in database
Track 11 not present in database
Track 12 not present in database
Track 13 not present in database
Track 14 not present in database

None of the tracks are present in the AccurateRip database

End of status report


Релиз представлен группой:


Вложения:
torrent_557937.torrent [11.74 КБ]
Скачиваний: 5

_________________
nntt.org : ВК+
« Жизнь имеет в точности ту ценность, которой мы хотим ее наделить »
Бергман И.
Вернуться к началу
 Профиль  
 
 [ 1 сообщение ] 
   Похожие темы   Автор   Ответы   Просмотры 
В этой теме нет новых непрочитанных сообщений. Вложения Нацистские СЕКСэксперименты / Nazi SEXperiments (1970) DVDRip

zorgi

195

В этой теме нет новых непрочитанных сообщений. Вложения Группа сексуальных контактов / Sexual Encounter Group (Alex de Renzy, Sherpix) [1970 г., Documentary, Not Censored, Adults Only, WEB-DLRip]

Balamut-1

787

В этой теме нет новых непрочитанных сообщений. Вложения Merle Michaels: Anal Strawberry / Мерл Майклз: Анальная клубничка (Alpha Blue Archives) [1970 г., Feature, Classic, Anal, DVDRip]

XXT

784

В этой теме нет новых непрочитанных сообщений. Вложения Mary Rock - Wax Play And Anal Stuffing (2017) SiteRip

zorgi

589






Контактная информация: rstracker@[щеночек]yandex.ru