[ 1 сообщение ] 
Автор Сообщение

СообщениеДобавлено: 19 сен 2019 

Не в сети

Спасибо: 684 / 0
Сообщения: 358
Пол: Мужской
Стаж: 5 лет 5 месяцев 18 дней
Торренты: 355


Титаны / Titans Сезон 2 , Серия 1-2 из 11


Год выпуска: 2019
Выпущено: США, Berlanti Productions, DC Entertainment, Warner Bros. Television, Weed Road Pictures
Жанр: Фантастика, фэнтези, боевик, приключения
Продолжительность: 00:45:00
Сезон: 2
Серия:1-2
Количество серий в сезоне:11

Озвучка #1: Профессиональный многоголосый - LostFilm - Русский

Озвучка #2: Профессиональный двухголосый закадровый - TVShows - Русский

Озвучка #3: Профессиональный многоголосый -Английский - Оригинал

Субтитры: Russian , English, English SDH


Релиз Без Рекламы


MDB 8.0

Режиссеры:
Брэд Андерсон, Грант Харви, Джон Фоусет

В ролях: : Брентон Туэйтс, Тиган Крофт, Анна Диоп, Линдси Горт, Райан Поттер, Каррен Уолтерс, Шеймус Девер, Эйприл Боулби, Дуэйн Мерфи


В надежде остановить своего отца — древнего демона Тригона — обладательница невероятных способностей девушка Рэйвен обращается за помощью к Робину. Бывший напарник Бэтмена теперь сам вершит правосудие на улицах Готэма, но, чтобы остановить зло, Рэйвен и Робину понадобится подмога.




Качество :WEB-DLRip - HEVC 10bit - 1080p
Формат: MKV
Видео кодек: H265
Видео: 2308Кбит/сек,1920х1080(16.9),в 23.976кадр/сек, HEVC (Main10@L4@Main)

Аудио Кодек:AC3

Аудио #1:MVO LostFilm @DD5.1 AC3, 384 Kbps, 48.0 KHz, 6 ch- Lostfilm -Русский

Аудио #6:MVO TVShows @DD5.1 AC3, 384 Kbps, 48.0 KHz, 6 ch-TVShows -Русский

Аудио #7: Original@DD5.1 AC3 ,640 Kbps, 48.0 KHz, 6 ch - English - Оригинал

Звуковая дорожка сделана путем наложения чистого голоса озвучивателей на центральный канал оригинальной дорожки. Качество идентично звуковой дорожке.



2 сезон 1 серия - Тригон - Trigon
2 сезон 2 серия - Роза - Rose



Общее
Уникальный идентификатор : 130557254345954148384056572722310933699 (0x6238699D8B57C9785C35E96345D1ECC3)
Полное имя : C:\Users\Russian Patriot\Downloads\Титаны - Titans\Titans_2019_S02_HEVC- 10Bit_Н265_DD5.1_N.B_HD_1080_2xRus_Eng\Titans_2019_ S02E01_HEVC_Н265_DD5.1_N.B_HD_1080_2xRus_Eng.mkv
Формат : Matroska
Версия формата : Version 4
Размер файла : 1,36 Гбайт
Продолжительность : 52 м. 23 с.
Общий поток : 3719 Кбит/сек
Название фильма : Titans 2019 S02E01 @ Nikolai.Baranov & PIRATIYA
Дата кодирования : UTC 2019-09-19 05:09:12
Программа кодирования : mkvmerge v37.0.0 ('Leave It') 64-bit
Библиотека кодирования : libebml v1.3.9 + libmatroska v1.5.2

Видео
Идентификатор : 1
Формат : HEVC
Формат/Информация : High Efficiency Video Coding
Профиль формата : Main 10@L4@Main
Идентификатор кодека : V_MPEGH/ISO/HEVC
Продолжительность : 52 м. 23 с.
Битрейт : 2308 Кбит/сек
Ширина : 1920 пикселей
Высота : 1080 пикселей
Соотношение сторон : 16:9
Режим частоты кадров : Постоянный
Частота кадров : 23,976 (24000/1001) кадра/сек
Цветовое пространство : YUV
Субдискретизация насыщенности : 4:2:0
Битовая глубина : 10 бит
Бит/(Пиксели*Кадры) : 0.046
Размер потока : 865 Мбайт (62%)
Заголовок : Titans_2019_ S02E01_HEVC_Н265_DD5.1_N.B_HD_1080_2xRus_Eng
Библиотека кодирования : x265 3.1+11-de920e0a3183:[Windows][MSVC 1922][64 bit] 10bit
Настройки программы : cpuid=1111039 / frame-threads=2 / numa-pools=4 / wpp / no-pmode / no-pme / no-psnr / no-ssim / log-level=2 / input-csp=1 / input-res=1920x1080 / interlace=0 / total-frames=75524 / level-idc=0 / high-tier=1 / uhd-bd=0 / ref=4 / no-allow-non-conformance / no-repeat-headers / annexb / no-aud / no-hrd / info / hash=0 / no-temporal-layers / open-gop / min-keyint=23 / keyint=250 / gop-lookahead=0 / bframes=8 / b-adapt=2 / b-pyramid / bframe-bias=0 / rc-lookahead=100 / lookahead-slices=4 / scenecut=40 / radl=0 / no-splice / no-intra-refresh / ctu=64 / min-cu-size=8 / no-rect / no-amp / max-tu-size=32 / tu-inter-depth=1 / tu-intra-depth=1 / limit-tu=0 / rdoq-level=2 / dynamic-rd=0.00 / no-ssim-rd / signhide / no-tskip / nr-intra=0 / nr-inter=0 / no-constrained-intra / no-strong-intra-smoothing / max-merge=3 / limit-refs=3 / limit-modes / me=3 / subme=7 / merange=92 / temporal-mvp / no-hme / weightp / no-weightb / no-analyze-src-pics / deblock=1:1 / sao / no-sao-non-deblock / rd=6 / no-early-skip / rskip / no-fast-intra / no-tskip-fast / no-cu-lossless / no-b-intra / no-splitrd-skip / rdpenalty=0 / psy-rd=1.30 / psy-rdoq=1.00 / no-rd-refine / no-lossless / cbqpoffs=0 / crqpoffs=0 / rc=crf / crf=20.8 / qcomp=0.60 / qpstep=4 / stats-write=0 / stats-read=0 / ipratio=1.40 / pbratio=1.30 / aq-mode=3 / aq-strength=1.00 / cutree / zone-count=0 / no-strict-cbr / qg-size=32 / no-rc-grain / qpmax=69 / qpmin=0 / no-const-vbv / sar=0 / overscan=0 / videoformat=5 / range=0 / colorprim=2 / transfer=2 / colormatrix=2 / chromaloc=0 / display-window=0cll=0,0 / min-luma=0 / max-luma=1023 / log2-max-poc-lsb=8 / vui-timing-info / vui-hrd-info / slices=1 / no-opt-qp-pps / no-opt-ref-list-length-pps / no-multi-pass-opt-rps / scenecut-bias=0.05 / no-opt-cu-delta-qp / no-aq-motion / no-hdr / no-hdr-opt / no-dhdr10-opt / no-idr-recovery-sei / analysis-reuse-level=5 / scale-factor=0 / refine-intra=0 / refine-inter=0 / refine-mv=0 / refine-ctu-distortion=0 / no-limit-sao / ctu-info=0 / no-lowpass-dct / refine-analysis-type=0 / copy-pic=1 / max-ausize-factor=1.0 / no-dynamic-refine / no-single-sei / no-hevc-aq / no-svt / no-field / qp-adaptation-range=1.00
Язык : Russian
Default : Нет
Forced : Нет

Аудио #1
Идентификатор : 5
Формат : AC-3
Формат/Информация : Audio Coding 3
Коммерческое название : Dolby Digital
Идентификатор кодека : A_AC3
Продолжительность : 52 м. 23 с.
Вид битрейта : Постоянный
Битрейт : 384 Кбит/сек
Каналы : 6 каналов
ChannelLayout : L R C LFE Ls Rs
Частота : 48,0 КГц
Частота кадров : 31,250 кадров/сек (1536 SPF)
Метод сжатия : С потерями
Размер потока : 144 Мбайт (10%)
Заголовок : MVO LostFilm @DD5.1 AC3, 384 Kbps, 48.0 KHz, 6 ch
Язык : Russian
ServiceKind/String : Complete Main
Default : Да
Forced : Нет

Аудио #2
Идентификатор : 6
Формат : AC-3
Формат/Информация : Audio Coding 3
Коммерческое название : Dolby Digital
Идентификатор кодека : A_AC3
Продолжительность : 52 м. 23 с.
Вид битрейта : Постоянный
Битрейт : 384 Кбит/сек
Каналы : 6 каналов
ChannelLayout : L R C LFE Ls Rs
Частота : 48,0 КГц
Частота кадров : 31,250 кадров/сек (1536 SPF)
Метод сжатия : С потерями
Размер потока : 144 Мбайт (10%)
Заголовок : MVO TVShows @DD5.1 AC3, 384 Kbps, 48.0 KHz, 6 ch
Язык : Russian
ServiceKind/String : Complete Main
Default : Нет
Forced : Нет

Аудио #3
Идентификатор : 7
Формат : AC-3
Формат/Информация : Audio Coding 3
Коммерческое название : Dolby Digital
Идентификатор кодека : A_AC3
Продолжительность : 52 м. 23 с.
Вид битрейта : Постоянный
Битрейт : 640 Кбит/сек
Каналы : 6 каналов
ChannelLayout : L R C LFE Ls Rs
Частота : 48,0 КГц
Частота кадров : 31,250 кадров/сек (1536 SPF)
Метод сжатия : С потерями
Размер потока : 240 Мбайт (17%)
Заголовок : Original@DD5.1 AC3 ,640 Kbps, 48.0 KHz, 6 ch
Язык : English
ServiceKind/String : Complete Main
Default : Нет
Forced : Нет

Текст #1
Идентификатор : 2
Формат : UTF-8
Идентификатор кодека : S_TEXT/UTF8
Идентификатор кодека/Информация : UTF-8 Plain Text
Продолжительность : 50 м. 9 с.
Битрейт : 78 бит/сек
ElementCount : 623
Размер потока : 28,7 Кбайт (0%)
Заголовок : Russian
Язык : Russian
Default : Да
Forced : Нет

Текст #2
Идентификатор : 3
Формат : UTF-8
Идентификатор кодека : S_TEXT/UTF8
Идентификатор кодека/Информация : UTF-8 Plain Text
Продолжительность : 50 м. 27 с.
Битрейт : 58 бит/сек
ElementCount : 773
Размер потока : 21,5 Кбайт (0%)
Заголовок : Original - SDH
Язык : English
Default : Нет
Forced : Нет

Текст #3
Идентификатор : 4
Формат : UTF-8
Идентификатор кодека : S_TEXT/UTF8
Идентификатор кодека/Информация : UTF-8 Plain Text
Продолжительность : 50 м. 6 с.
Битрейт : 46 бит/сек
ElementCount : 630
Размер потока : 17,2 Кбайт (0%)
Заголовок : Original
Язык : English
Default : Нет
Forced : Нет

Меню
00:00:00.000 : ru:Глава 01 / ru:Глава 01 / ru:Глава 01 / ru:Глава 01 / ru:Глава 01 / ru:Глава 01 / ru:Глава 01










Внимание! Раздача пополняется по мере выхода новых серий!


Раздача ведётся путём добавления новых серий; при каждом добавлении создётся новый торрент.
Чтобы начать докачку новой серии, пользователям необходимо сделать следующее:
1. остановить скачивание,
2. удалить старый торрент у себя из клиента (старые серии удалять не надо),
3. скачать новый торрент и запустить его у себя в клиенте вместо старого, при этом указать клиенту путь в старую папку, куда и должно происходить скачивание новых серий.

Ваш клиент при этом должен произвести хеширование (проверку) старой папки (если не производит сам - помогите ему сделать это), и будет докачивать только те серии которых у вас ещё нет. Старые серии при этом не удаляются, а продолжают раздаваться!

Eсли вы уже удалили старые серии, то предотвратить повторную закачку старых серий можно, отжав галочку в соответсвующих местах при запуске нового торрента. По возможности, желательно не удалять старые серии как можно дольше, чтобы релизёр не столько продолжал раздавать старые серии, а смог сконцентрироваться на новых.

Совет для тех, кто не хочет ждать перехеширования:
Создайте ещё одну папку рядом с папкой сериала (рядом, а не в ней!!!). Каждую новую серию после удачной загрузки копируйте в новую папку так чтобы ваша основная папка всегда была пуста. Когда ваш новый торрент предложит вам закачать все файлы, выберете только последнюю. Для сидирования же укажите адрес новой папки.

Как закачать отдельный файл из торрента или докачать ранее пропущенные файлы торрента!

1. Открыть торрент
2. Снять галки с тех файлов торрента, которые мы не хотим закачивать. Оставляем только на нужных нам файлах (файле).
3. Нажать О.К.

В клиенте utorrent

Инструкция

1) Открыть торрент


2) Снять галки с тех файлов торрента, которые мы не хотим закачивать:

* либо вручную, снимая с каждого файла галку( скрин №1)
* либо, нажав кнопку "Снять метки (Select None)", сняв сразу со всех файлов(скрин №2)
№1

№2

Оставляем только на нужных нам файлах (файле).

3)Нажать О.К






Релиз от: Nikolai.Baranov & PIRATIYA . Поблагодарить:
ЯД: 410017546713876








Время раздачи : 24/7


Вернуться к началу
 Профиль  
 
 [ 1 сообщение ] 
   Похожие темы   Автор   Ответы   Просмотры 
В этой теме нет новых непрочитанных сообщений. Вложения Титаны / Titans (Сезон 1-2 , Серия 1-24 из 24) ( Брэд Андерсон, Грант Харви, Джон Фоусет) [2018-2019,Фантастика, фэнтези, боевик, приключения,WEB-DLRip 1080p] [LostFilm+TVShows+ENG]+[Subs Rus , ENG]

Враг Нароода

353

В этой теме нет новых непрочитанных сообщений. Вложения Криптон / Krypton (Сезон 2 , Серия 1-10 из 10) ( Киаран Доннелли) [2019, Фантастика, боевик, драма, приключения,WEB-DLRip 1080p] [LostFilm +TVShows+ENG]+[Subs Rus , ENG]

Враг Нароода

202

В этой теме нет новых непрочитанных сообщений. Вложения Мандалорец/ The Mandalorian (Сезон 1 , Серия 1-8 из 8) (Дебора Чоу) [2019,Фантастика, боевик, приключения,WEB-DLRip 1080p] [LostFilm+NewStudio+HDRezka+AlexFilm+Jaskier+TVShows+ENG]+[Subs Rus+ENG]

Враг Нароода

2635

В этой теме нет новых непрочитанных сообщений. Вложения Мандалорец/ The Mandalorian (Сезон 1 , Серия 1-8 из 8) (Дебора Чоу) [2019,Фантастика, боевик, приключения,WEB-DLRip 1080p] [LostFilm+NewStudio+HDRezka+AlexFilm+Jaskier+TVShows+ENG]+[Subs Rus+ENG]

Враг Нароода

718

В этой теме нет новых непрочитанных сообщений. Вложения Криптон / Krypton (Сезон 2 , Серия 1-10 из 10) ( Киаран Доннелли) [2019, Фантастика, боевик, драма, приключения,WEB-DLRip 720p] [LostFilm +TVShows+ENG]+[Subs Rus , ENG]

Враг Нароода

189






Для Мосгорсуда, Роскомнадзора и рекламодателей: mosgorsud-torrent[собачка]yandex.ru